Devil in the Dark | Download | Fukuie Keibuho no Aisatsu

Liz Benny - Kapow Course

Liz Benny - Kapow Course
Liz Benny - Kapow Course
WEBRip | English | MP4 | 1920 x 1080 | AVC ~1644 Kbps | 25 fps
AAC | 126 Kbps | 44.1 KHz | 2 channels | 24:06:59 | 14.06 GB
Genre: eLearning Video / Business, Sales, Marketing


Welcome to Kapow Course! Brought to you by Internationally renowned Liz Benny - Speaker, Consultant and KAPOW Coach For Entrepreneurs Worldwide. She told her story on stage and had grown men crying. Now YOU can have all her systems, secrets and strategies in one place. KAPOW NOW. Order below!
Here's What You'll Get:

Lifetime Access To The Full Kapow Course 12 Step System For Course Creation. Video, PDF, Checklists. (Value $12,997)
Kapow LIFE! Course For Entrepreneurs And All Those Wanting To Play Life At The Extreme Level. ($10,997 Value)
Million Dollar Business Coaching and System and Training. ($1,997 Value)
Testimonial Training And Request System To Ensure Social Proof. ($1,497 Value)
Joint Venture Coaching and Acquisition System To Sign Up Big List Partners. ($1,997 Value)
Back End Training And Management System To Make Sure You Don't Spend A Minute More Than Needed Doing Admin. ($1,997 Value)
Yes! You Get My "Social Monkey Business" Million Dollar Funnel. ($15,997 Value)
Exclusive "Kapow!" Facebook Group Access With Complimentary Monthly Coaching. ($1,164 Value)
Total Value: $48,643

AUTOMATIC COURSE SALES
How to make automatic course sales even if you're super busy. In fact, I had thousands rolling in while I was saying "I Do" at my wedding!

UPFRONT COURSE SALES
My personal secret method to making sure people will buy your course, even before you sell the first one!

Price: $997
More Info: Salepage


General
Complete name : Step 5 Video 11 Funnel Creation Case Study Terms and Conditions.mp4
Format : MPEG-4
Format profile : Base Media
Codec ID : isom (isom/iso2/avc1/mp41)
File size : 86.8 MiB
Duration : 7 min 6 s
Overall bit rate : 1 706 kb/s
Season : 0
Movie name : Step 5 Video 11 Funnel Creation Case Study Terms and Conditions
Part : 0
AppleStoreCatalogID : 0

Video
ID : 1
Format : AVC
Format/Info : Advanced Video Codec
Format profile : [email protected]
Format settings, CABAC : Yes
Format settings, ReFrames : 4 frames
Codec ID : avc1
Codec ID/Info : Advanced Video Coding
Duration : 7 min 6 s
Bit rate : 1 644 kb/s
Width : 1 920 pixels
Height : 1 080 pixels
Display aspect ratio : 16:9
Frame rate mode : Constant
Frame rate : 25.000 FPS
Color space : YUV
Chroma subsampling : 4:2:0
Bit depth : 8 bits
Scan type : Progressive
Bits/(Pixel*Frame) : 0.032
Stream size : 80.1 MiB (92%)
Writing library : x264 core 129
Encoding settings : cabac=1 / ref=3 / deblock=1:0:0 / analyse=0x3:0x113 / me=hex / subme=7 / psy=1 / psy_rd=1.00:0.00 / mixed_ref=1 / me_range=16 / chroma_me=1 / trellis=1 / 8x8dct=1 / cqm=0 / deadzone=21,11 / fast_pskip=1 / chroma_qp_offset=-2 / threads=9 / lookahead_threads=1 / sliced_threads=0 / nr=0 / decimate=1 / interlaced=0 / bluray_compat=0 / constrained_intra=0 / bframes=3 / b_pyramid=2 / b_adapt=1 / b_bias=0 / direct=1 / weightb=1 / open_gop=0 / weightp=2 / keyint=250 / keyint_min=25 / scenecut=40 / intra_refresh=0 / rc_lookahead=40 / rc=abr / mbtree=1 / bitrate=1644 / ratetol=1.0 / qcomp=0.60 / qpmin=0 / qpmax=69 / qpstep=4 / ip_ratio=1.40 / aq=1:1.00
Menus : 3

Audio
ID : 2
Format : AAC
Format/Info : Advanced Audio Codec
Format profile : LC
Codec ID : 40
Duration : 7 min 6 s
Duration_LastFrame : -40 ms
Bit rate mode : Constant
Bit rate : 126 kb/s
Channel(s) : 2 channels
Channel positions : Front: L R
Sampling rate : 44.1 kHz
Frame rate : 43.066 FPS (1024 spf)
Compression mode : Lossy
Stream size : 6.39 MiB (7%)
Default : Yes
Alternate group : 1

Menu
ID : 3
Codec ID : text
Duration : 7 min 6 s
Encoded date : UTC 2017-08-28 16:38:22
Tagged date : UTC 2017-08-28 16:38:22
Menu For : 1
00:00:00.000 : Chapter 1

Liz Benny - Kapow Course

Download link:

rapidgator_net:
http://rapidgator.net/file/60b5f653aad7c21a5650eb0560add3c6/j9lna.Liz.Benny..Kapow.Course.part1.rar.html
http://rapidgator.net/file/be8ce18352a15816b0ed907c7a7b9d7d/j9lna.Liz.Benny..Kapow.Course.part2.rar.html
http://rapidgator.net/file/e7da1f57f5fdc3ae737046bf8a319e9a/j9lna.Liz.Benny..Kapow.Course.part3.rar.html
http://rapidgator.net/file/3ebb54808007c51e8816fd3642879e51/j9lna.Liz.Benny..Kapow.Course.part4.rar.html
http://rapidgator.net/file/66fd1cb6a1fefaf2d9238c64e3304a14/j9lna.Liz.Benny..Kapow.Course.part5.rar.html
http://rapidgator.net/file/9f1bfdd999c77312d9321372f7675e26/j9lna.Liz.Benny..Kapow.Course.part6.rar.html
http://rapidgator.net/file/461aa219fc43d2e6fcfe14fafe66d5b9/j9lna.Liz.Benny..Kapow.Course.part7.rar.html
http://rapidgator.net/file/9ac95dc82147a6757d32342f06839d27/j9lna.Liz.Benny..Kapow.Course.part8.rar.html

uploadgig_com:
http://uploadgig.com/file/download/D91811fcc80D563b/j9lna.Liz.Benny..Kapow.Course.part1.rar
http://uploadgig.com/file/download/7a87203433f1472a/j9lna.Liz.Benny..Kapow.Course.part2.rar
http://uploadgig.com/file/download/aE179c22dDd437dc/j9lna.Liz.Benny..Kapow.Course.part3.rar
http://uploadgig.com/file/download/458065D2136ba842/j9lna.Liz.Benny..Kapow.Course.part4.rar
http://uploadgig.com/file/download/CAfb1702Da99feD7/j9lna.Liz.Benny..Kapow.Course.part5.rar
http://uploadgig.com/file/download/96baB048506e3d57/j9lna.Liz.Benny..Kapow.Course.part6.rar
http://uploadgig.com/file/download/326B2b433d55Eeab/j9lna.Liz.Benny..Kapow.Course.part7.rar
http://uploadgig.com/file/download/b66C18F38ca2d85a/j9lna.Liz.Benny..Kapow.Course.part8.rar

nitroflare_com:
http://nitroflare.com/view/F7397B5A1F9B84D/j9lna.Liz.Benny..Kapow.Course.part1.rar
http://nitroflare.com/view/A3D629643B1F2B5/j9lna.Liz.Benny..Kapow.Course.part2.rar
http://nitroflare.com/view/C6856A0F5265128/j9lna.Liz.Benny..Kapow.Course.part3.rar
http://nitroflare.com/view/3DD954BD7E3FE8E/j9lna.Liz.Benny..Kapow.Course.part4.rar
http://nitroflare.com/view/140E0A2F14AD22C/j9lna.Liz.Benny..Kapow.Course.part5.rar
http://nitroflare.com/view/D1EB8A1C9D26DBE/j9lna.Liz.Benny..Kapow.Course.part6.rar
http://nitroflare.com/view/0A31EEB0F21BC69/j9lna.Liz.Benny..Kapow.Course.part7.rar
http://nitroflare.com/view/748BCC14D577D45/j9lna.Liz.Benny..Kapow.Course.part8.rar

Links are Interchangeable - No Password - Single Extraction
[related-news]

Related News

{related-news}
[/related-news]

Comments 0

Information
Would you like to leave your comment? Please Login to your account to leave comments. Don't have an account? You can create a free account now.
Edited byTorrent links